osu file format v14

[General]
AudioFilename: boh.mp3
AudioLeadIn: 1500
PreviewTime: 52407
Countdown: 0
SampleSet: Soft
StackLeniency: 0.7
Mode: 3
LetterboxInBreaks: 0
WidescreenStoryboard: 1

[Editor]
DistanceSpacing: 1.1
BeatDivisor: 4
GridSize: 4
TimelineZoom: 1.6

[Metadata]
Title:SOUND VOLTEX KAC2013 Collection
TitleUnicode:SOUND VOLTEX KAC2013 Collection
Artist:Various Artists
ArtistUnicode:Various Artists
Creator:_FrEsH_ChICkEn_
Version:BLACK or WHITE?
Source:SOUND VOLTEX II -infinite infection-
Tags:ke-ji Ayatsugu_Otowa Hommarju BlackYooh vs. siromaru かめりあ Camellia cosMo@暴走P cosMo@Bousou-P
BeatmapID:725849
BeatmapSetID:326977

[Difficulty]
HPDrainRate:8
CircleSize:4
OverallDifficulty:8
ApproachRate:5
SliderMultiplier:1.4
SliderTickRate:1

[Events]
//Background and Video events
0,0,"boh.png",0,0
//Break Periods
//Storyboard Layer 0 (Background)
//Storyboard Layer 1 (Fail)
//Storyboard Layer 2 (Pass)
//Storyboard Layer 3 (Foreground)
//Storyboard Sound Samples

[TimingPoints]
571,324.324324324324,4,2,0,20,1,0

[HitObjects]
192,192,571,5,0,0:0:0:0:
64,192,571,1,0,0:0:0:0:
448,192,571,1,0,0:0:0:0:
320,192,652,1,0,0:0:0:0:
192,192,733,1,0,0:0:0:0:
64,192,814,1,0,0:0:0:0:
192,192,895,1,0,0:0:0:0:
320,192,976,1,0,0:0:0:0:
448,192,1057,1,0,0:0:0:0:
320,192,1138,1,0,0:0:0:0:
192,192,1219,1,0,0:0:0:0:
64,192,1300,1,0,0:0:0:0:
192,192,1381,1,0,0:0:0:0:
320,192,1462,1,0,0:0:0:0:
448,192,1543,1,0,0:0:0:0:
320,192,1625,1,0,0:0:0:0:
192,192,1706,1,0,0:0:0:0:
64,192,1787,1,0,0:0:0:0:
448,192,1868,1,0,0:0:0:0:
320,192,1949,1,0,0:0:0:0:
192,192,2030,1,0,0:0:0:0:
64,192,2111,1,0,0:0:0:0:
192,192,2192,1,0,0:0:0:0:
320,192,2273,1,0,0:0:0:0:
448,192,2354,1,0,0:0:0:0:
320,192,2435,1,0,0:0:0:0:
192,192,2516,1,0,0:0:0:0:
64,192,2598,1,0,0:0:0:0:
192,192,2679,1,0,0:0:0:0:
320,192,2760,1,0,0:0:0:0:
448,192,2841,1,0,0:0:0:0:
320,192,2922,1,0,0:0:0:0:
192,192,3003,1,0,0:0:0:0:
64,192,3084,1,0,0:0:0:0:
192,192,3165,1,0,0:0:0:0:
320,192,3246,1,0,0:0:0:0:
448,192,3327,1,0,0:0:0:0:
192,192,3408,1,0,0:0:0:0:
64,192,3489,1,0,0:0:0:0:
192,192,3570,1,0,0:0:0:0:
320,192,3652,1,0,0:0:0:0:
448,192,3733,1,0,0:0:0:0:
320,192,3814,1,0,0:0:0:0:
192,192,3895,1,0,0:0:0:0:
64,192,3976,1,0,0:0:0:0:
192,192,4057,1,0,0:0:0:0:
320,192,4138,1,0,0:0:0:0:
448,192,4219,1,0,0:0:0:0:
320,192,4300,1,0,0:0:0:0:
192,192,4381,1,0,0:0:0:0:
448,192,4462,1,0,0:0:0:0:
64,192,4462,1,0,0:0:0:0:
320,192,4543,1,0,0:0:0:0:
192,192,4625,1,0,0:0:0:0:
64,192,4706,1,0,0:0:0:0:
192,192,4787,1,0,0:0:0:0:
448,192,4868,1,0,0:0:0:0:
320,192,4949,1,0,0:0:0:0:
192,192,5030,1,0,0:0:0:0:
64,192,5111,1,0,0:0:0:0:
192,192,5192,1,0,0:0:0:0:
320,192,5273,1,0,0:0:0:0:
448,192,5354,1,0,0:0:0:0:
64,192,5435,1,0,0:0:0:0:
192,192,5516,1,0,0:0:0:0:
320,192,5598,1,0,0:0:0:0:
448,192,5679,1,0,0:0:0:0:
320,192,5760,1,0,0:0:0:0:
64,192,5760,1,0,0:0:0:0:
448,192,5841,1,0,0:0:0:0:
320,192,5922,1,0,0:0:0:0:
192,192,6003,1,0,0:0:0:0:
64,192,6084,1,0,0:0:0:0:
448,192,6165,1,0,0:0:0:0:
320,192,6246,1,0,0:0:0:0:
192,192,6327,1,0,0:0:0:0:
64,192,6408,1,0,0:0:0:0:
192,192,6489,1,0,0:0:0:0:
320,192,6570,1,0,0:0:0:0:
448,192,6652,1,0,0:0:0:0:
320,192,6733,1,0,0:0:0:0:
192,192,6814,1,0,0:0:0:0:
64,192,6895,1,0,0:0:0:0:
192,192,6976,1,0,0:0:0:0:
320,192,7057,1,0,0:0:0:0:
448,192,7057,1,0,0:0:0:0:
64,192,7138,1,0,0:0:0:0:
192,192,7219,1,0,0:0:0:0:
448,192,7300,1,0,0:0:0:0:
320,192,7381,1,0,0:0:0:0:
448,192,7462,1,0,0:0:0:0:
64,192,7543,1,0,0:0:0:0:
320,192,7625,1,0,0:0:0:0:
192,192,7706,1,0,0:0:0:0:
64,192,7787,1,0,0:0:0:0:
320,192,7868,1,0,0:0:0:0:
448,192,7949,1,0,0:0:0:0:
320,192,8030,1,0,0:0:0:0:
64,192,8111,1,0,0:0:0:0:
448,192,8192,1,0,0:0:0:0:
320,192,8273,1,0,0:0:0:0:
192,192,8354,1,0,0:0:0:0:
64,192,8354,1,0,0:0:0:0:
448,192,8354,1,0,0:0:0:0:
192,192,8516,1,0,0:0:0:0:
64,192,8516,1,0,0:0:0:0:
448,192,8516,1,0,0:0:0:0:
192,192,8679,1,0,0:0:0:0:
64,192,8679,1,0,0:0:0:0:
448,192,8679,1,0,0:0:0:0:
192,192,8841,1,0,0:0:0:0:
64,192,8841,1,0,0:0:0:0:
448,192,8841,1,0,0:0:0:0:
192,192,9003,1,0,0:0:0:0:
64,192,9003,1,0,0:0:0:0:
448,192,9003,1,0,0:0:0:0:
192,192,9165,1,0,0:0:0:0:
64,192,9165,1,0,0:0:0:0:
448,192,9165,1,0,0:0:0:0:
192,192,9327,1,0,0:0:0:0:
64,192,9327,1,0,0:0:0:0:
448,192,9327,1,0,0:0:0:0:
192,192,9489,1,0,0:0:0:0:
64,192,9489,1,0,0:0:0:0:
448,192,9489,1,0,0:0:0:0:
320,192,9976,1,0,0:0:0:0:
448,192,9976,1,0,0:0:0:0:
192,192,10057,1,0,0:0:0:0:
64,192,10057,1,0,0:0:0:0:
320,192,10138,1,0,0:0:0:0:
448,192,10138,1,0,0:0:0:0:
192,192,10219,1,0,0:0:0:0:
64,192,10219,1,0,0:0:0:0:
320,192,10300,1,0,0:0:0:0:
448,192,10300,1,0,0:0:0:0:
192,192,10381,1,0,0:0:0:0:
64,192,10381,1,0,0:0:0:0:
320,192,10462,1,0,0:0:0:0:
448,192,10462,1,0,0:0:0:0:
192,192,10543,1,0,0:0:0:0:
64,192,10543,1,0,0:0:0:0:
448,192,10625,1,0,0:0:0:0:
320,192,10665,1,0,0:0:0:0:
192,192,10706,1,0,0:0:0:0:
64,192,10746,1,0,0:0:0:0:
192,192,10787,1,0,0:0:0:0:
320,192,10827,1,0,0:0:0:0:
448,192,10868,1,0,0:0:0:0:
320,192,10908,1,0,0:0:0:0:
192,192,10949,1,0,0:0:0:0:
64,192,10949,128,0,11111:0:0:0:0:
320,192,11111,1,0,0:0:0:0:
448,192,11111,1,0,0:0:0:0:
192,192,11192,1,0,0:0:0:0:
64,192,11192,1,0,0:0:0:0:
448,192,11273,128,0,11435:0:0:0:0:
320,192,11273,1,0,0:0:0:0:
192,192,11354,1,0,0:0:0:0:
320,192,11435,1,0,0:0:0:0:
64,192,11435,1,0,0:0:0:0:
192,192,11516,1,0,0:0:0:0:
448,192,11516,1,0,0:0:0:0:
320,192,11598,128,0,11760:0:0:0:0:
64,192,11598,1,0,0:0:0:0:
192,192,11760,1,0,0:0:0:0:
448,192,11760,1,0,0:0:0:0:
64,192,11841,1,0,0:0:0:0:
320,192,11841,1,0,0:0:0:0:
192,192,11922,128,0,12084:0:0:0:0:
448,192,11922,1,0,0:0:0:0:
320,192,12003,1,0,0:0:0:0:
448,192,12084,1,0,0:0:0:0:
64,192,12084,1,0,0:0:0:0:
320,192,12165,1,0,0:0:0:0:
192,192,12165,1,0,0:0:0:0:
64,192,12246,128,0,12408:0:0:0:0:
448,192,12246,1,0,0:0:0:0:
192,192,12408,1,0,0:0:0:0:
448,192,12408,1,0,0:0:0:0:
320,192,12489,1,0,0:0:0:0:
64,192,12489,1,0,0:0:0:0:
448,192,12570,128,0,12733:0:0:0:0:
192,192,12570,1,0,0:0:0:0:
192,192,12652,1,0,0:0:0:0:
320,192,12733,1,0,0:0:0:0:
64,192,12733,1,0,0:0:0:0:
192,192,12814,1,0,0:0:0:0:
448,192,12814,1,0,0:0:0:0:
320,192,12895,128,0,13057:0:0:0:0:
64,192,12895,1,0,0:0:0:0:
192,192,13057,1,0,0:0:0:0:
448,192,13057,1,0,0:0:0:0:
320,192,13138,1,0,0:0:0:0:
64,192,13138,1,0,0:0:0:0:
192,192,13219,1,0,0:0:0:0:
448,192,13219,1,0,0:0:0:0:
448,192,13300,1,0,0:0:0:0:
192,192,13300,1,0,0:0:0:0:
320,192,13381,1,0,0:0:0:0:
64,192,13381,1,0,0:0:0:0:
320,192,13462,1,0,0:0:0:0:
64,192,13462,1,0,0:0:0:0:
192,192,13543,128,0,13706:0:0:0:0:
448,192,13543,1,0,0:0:0:0:
320,192,13706,1,0,0:0:0:0:
448,192,13706,1,0,0:0:0:0:
192,192,13787,1,0,0:0:0:0:
64,192,13787,1,0,0:0:0:0:
448,192,13868,128,0,14030:0:0:0:0:
192,192,13868,1,0,0:0:0:0:
320,192,13949,1,0,0:0:0:0:
192,192,14030,1,0,0:0:0:0:
64,192,14030,1,0,0:0:0:0:
320,192,14111,1,0,0:0:0:0:
448,192,14111,1,0,0:0:0:0:
64,192,14192,128,0,14354:0:0:0:0:
192,192,14192,1,0,0:0:0:0:
192,192,14354,1,0,0:0:0:0:
320,192,14354,1,0,0:0:0:0:
448,192,14435,1,0,0:0:0:0:
64,192,14435,1,0,0:0:0:0:
320,192,14516,128,0,14679:0:0:0:0:
192,192,14516,1,0,0:0:0:0:
192,192,14598,1,0,0:0:0:0:
448,192,14679,1,0,0:0:0:0:
64,192,14679,1,0,0:0:0:0:
320,192,14760,1,0,0:0:0:0:
192,192,14760,1,0,0:0:0:0:
448,192,14841,128,0,15003:0:0:0:0:
64,192,14841,1,0,0:0:0:0:
320,192,15003,1,0,0:0:0:0:
64,192,15003,1,0,0:0:0:0:
192,192,15084,1,0,0:0:0:0:
448,192,15084,1,0,0:0:0:0:
64,192,15165,128,0,15327:0:0:0:0:
320,192,15165,1,0,0:0:0:0:
320,192,15246,1,0,0:0:0:0:
192,192,15327,1,0,0:0:0:0:
448,192,15327,1,0,0:0:0:0:
320,192,15408,1,0,0:0:0:0:
64,192,15408,1,0,0:0:0:0:
448,192,15489,1,0,0:0:0:0:
192,192,15489,1,0,0:0:0:0:
320,192,15570,1,0,0:0:0:0:
64,192,15570,1,0,0:0:0:0:
192,192,15652,1,0,0:0:0:0:
448,192,15652,1,0,0:0:0:0:
320,192,15733,1,0,0:0:0:0:
64,192,15733,1,0,0:0:0:0:
448,192,15814,1,0,0:0:0:0:
320,192,15895,1,0,0:0:0:0:
192,192,15976,128,0,16138:0:0:0:0:
64,192,16138,128,0,16381:0:0:0:0:
320,192,16138,128,0,16381:0:0:0:0:
192,192,16300,128,0,16462:0:0:0:0:
448,192,16462,1,0,0:0:0:0:
320,192,16462,1,0,0:0:0:0:
64,192,16462,128,0,16625:0:0:0:0:
192,192,16625,1,0,0:0:0:0:
320,192,16625,1,0,0:0:0:0:
448,192,16706,1,0,0:0:0:0:
64,192,16706,1,0,0:0:0:0:
320,192,16787,128,0,16949:0:0:0:0:
192,192,16787,1,0,0:0:0:0:
448,192,16868,1,0,0:0:0:0:
192,192,16949,1,0,0:0:0:0:
64,192,16949,1,0,0:0:0:0:
320,192,17030,1,0,0:0:0:0:
448,192,17030,1,0,0:0:0:0:
64,192,17111,128,0,17273:0:0:0:0:
320,192,17111,1,0,0:0:0:0:
192,192,17273,1,0,0:0:0:0:
448,192,17273,1,0,0:0:0:0:
320,192,17354,1,0,0:0:0:0:
64,192,17354,1,0,0:0:0:0:
448,192,17435,128,0,17598:0:0:0:0:
192,192,17435,1,0,0:0:0:0:
320,192,17598,1,0,0:0:0:0:
192,192,17598,1,0,0:0:0:0:
448,192,17679,1,0,0:0:0:0:
64,192,17679,1,0,0:0:0:0:
320,192,17760,128,0,17922:0:0:0:0:
192,192,17760,1,0,0:0:0:0:
448,192,17841,1,0,0:0:0:0:
192,192,17922,1,0,0:0:0:0:
64,192,17922,1,0,0:0:0:0:
320,192,18003,1,0,0:0:0:0:
448,192,18003,1,0,0:0:0:0:
192,192,18084,128,0,18246:0:0:0:0:
448,192,18084,1,0,0:0:0:0:
64,192,18165,1,0,0:0:0:0:
320,192,18246,1,0,0:0:0:0:
448,192,18246,1,0,0:0:0:0:
192,192,18327,1,0,0:0:0:0:
64,192,18327,1,0,0:0:0:0:
320,192,18408,1,0,0:0:0:0:
448,192,18408,1,0,0:0:0:0:
192,192,18489,1,0,0:0:0:0:
64,192,18489,1,0,0:0:0:0:
320,192,18570,1,0,0:0:0:0:
192,192,18652,1,0,0:0:0:0:
448,192,18733,1,0,0:0:0:0:
64,192,18733,128,0,18895:0:0:0:0:
448,192,18814,1,0,0:0:0:0:
192,192,18895,1,0,0:0:0:0:
320,192,18895,1,0,0:0:0:0:
448,192,18976,1,0,0:0:0:0:
64,192,18976,1,0,0:0:0:0:
320,192,19057,128,0,19219:0:0:0:0:
192,192,19138,1,0,0:0:0:0:
448,192,19219,1,0,0:0:0:0:
64,192,19219,1,0,0:0:0:0:
192,192,19300,1,0,0:0:0:0:
320,192,19300,1,0,0:0:0:0:
64,192,19381,128,0,19543:0:0:0:0:
448,192,19543,1,0,0:0:0:0:
192,192,19543,1,0,0:0:0:0:
320,192,19625,1,0,0:0:0:0:
64,192,19625,1,0,0:0:0:0:
448,192,19706,128,0,19868:0:0:0:0:
192,192,19706,1,0,0:0:0:0:
320,192,19787,1,0,0:0:0:0:
64,192,19868,1,0,0:0:0:0:
192,192,19868,1,0,0:0:0:0:
320,192,19949,1,0,0:0:0:0:
448,192,19949,1,0,0:0:0:0:
192,192,20030,128,0,20111:0:0:0:0:
64,192,20030,128,0,20111:0:0:0:0:
320,192,20111,1,0,0:0:0:0:
448,192,20111,1,0,0:0:0:0:
192,192,20192,128,0,20273:0:0:0:0:
64,192,20192,128,0,20273:0:0:0:0:
320,192,20273,1,0,0:0:0:0:
448,192,20273,1,0,0:0:0:0:
192,192,20354,128,0,20435:0:0:0:0:
64,192,20354,128,0,20435:0:0:0:0:
320,192,20435,1,0,0:0:0:0:
448,192,20435,1,0,0:0:0:0:
192,192,20516,1,0,0:0:0:0:
64,192,20516,1,0,0:0:0:0:
320,192,20598,1,0,0:0:0:0:
448,192,20598,1,0,0:0:0:0:
192,192,20679,1,0,0:0:0:0:
320,192,20760,1,0,0:0:0:0:
192,192,20841,1,0,0:0:0:0:
320,192,20922,1,0,0:0:0:0:
64,192,21003,1,0,0:0:0:0:
448,192,21084,1,0,0:0:0:0:
64,192,21165,1,0,0:0:0:0:
448,192,21246,1,0,0:0:0:0:
320,192,21327,1,0,0:0:0:0:
64,192,21327,1,0,0:0:0:0:
320,192,21489,1,0,0:0:0:0:
64,192,21489,1,0,0:0:0:0:
320,192,21652,128,0,21976:0:0:0:0:
64,192,21652,128,0,21976:0:0:0:0:
448,192,21976,1,0,0:0:0:0:
192,192,21976,1,0,0:0:0:0:
192,192,22138,1,0,0:0:0:0:
448,192,22138,1,0,0:0:0:0:
192,192,22300,128,0,22625:0:0:0:0:
448,192,22300,128,0,22625:0:0:0:0:
320,192,22625,1,0,0:0:0:0:
64,192,22625,1,0,0:0:0:0:
320,192,22787,1,0,0:0:0:0:
64,192,22787,1,0,0:0:0:0:
320,192,22949,128,0,23273:0:0:0:0:
64,192,22949,128,0,23273:0:0:0:0:
192,192,23273,1,0,0:0:0:0:
448,192,23273,1,0,0:0:0:0:
320,192,23598,128,0,23922:0:0:0:0:
64,192,23598,128,0,23922:0:0:0:0:
192,192,23922,1,0,0:0:0:0:
448,192,23922,1,0,0:0:0:0:
192,192,24084,1,0,0:0:0:0:
448,192,24084,1,0,0:0:0:0:
192,192,24246,128,0,24570:0:0:0:0:
448,192,24246,128,0,24570:0:0:0:0:
320,192,24570,1,0,0:0:0:0:
64,192,24570,1,0,0:0:0:0:
64,192,24733,1,0,0:0:0:0:
320,192,24733,1,0,0:0:0:0:
64,192,24895,128,0,25219:0:0:0:0:
320,192,24895,128,0,25219:0:0:0:0:
192,192,25219,1,0,0:0:0:0:
448,192,25219,1,0,0:0:0:0:
448,192,25381,1,0,0:0:0:0:
192,192,25381,1,0,0:0:0:0:
320,192,25462,1,0,0:0:0:0:
64,192,25462,1,0,0:0:0:0:
192,192,25543,1,0,0:0:0:0:
448,192,25543,1,0,0:0:0:0:
448,192,25706,1,0,0:0:0:0:
192,192,25706,1,0,0:0:0:0:
320,192,25787,1,0,0:0:0:0:
64,192,25787,1,0,0:0:0:0:
192,192,25868,1,0,0:0:0:0:
448,192,25868,1,0,0:0:0:0:
192,192,25976,1,0,0:0:0:0:
448,192,25976,1,0,0:0:0:0:
192,192,26084,1,0,0:0:0:0:
448,192,26084,1,0,0:0:0:0:
320,192,26192,1,0,0:0:0:0:
64,192,26192,1,0,0:0:0:0:
320,192,26300,1,0,0:0:0:0:
64,192,26300,1,0,0:0:0:0:
320,192,26408,1,0,0:0:0:0:
64,192,26408,1,0,0:0:0:0:
448,192,26516,128,0,27814:0:0:0:0:
192,192,26516,1,0,0:0:0:0:
320,192,26679,1,0,0:0:0:0:
192,192,26841,1,0,0:0:0:0:
320,192,27003,1,0,0:0:0:0:
192,192,27165,1,0,0:0:0:0:
320,192,27327,1,0,0:0:0:0:
192,192,27489,1,0,0:0:0:0:
320,192,27652,1,0,0:0:0:0:
320,192,27814,128,0,29111:0:0:0:0:
64,192,27814,1,0,0:0:0:0:
192,192,27976,1,0,0:0:0:0:
64,192,28138,1,0,0:0:0:0:
192,192,28300,1,0,0:0:0:0:
64,192,28462,1,0,0:0:0:0:
192,192,28625,1,0,0:0:0:0:
64,192,28787,1,0,0:0:0:0:
192,192,28949,1,0,0:0:0:0:
192,192,29111,128,0,30408:0:0:0:0:
448,192,29111,1,0,0:0:0:0:
320,192,29273,1,0,0:0:0:0:
448,192,29435,1,0,0:0:0:0:
320,192,29598,1,0,0:0:0:0:
448,192,29760,1,0,0:0:0:0:
320,192,29922,1,0,0:0:0:0:
448,192,30084,1,0,0:0:0:0:
320,192,30246,1,0,0:0:0:0:
64,192,30408,128,0,31706:0:0:0:0:
448,192,30408,128,0,30570:0:0:0:0:
320,192,30570,1,0,0:0:0:0:
192,192,30652,1,0,0:0:0:0:
448,192,30733,128,0,30895:0:0:0:0:
320,192,30895,1,0,0:0:0:0:
192,192,30976,1,0,0:0:0:0:
448,192,31057,128,0,31219:0:0:0:0:
320,192,31219,1,0,0:0:0:0:
192,192,31300,1,0,0:0:0:0:
448,192,31381,128,0,31543:0:0:0:0:
320,192,31543,1,0,0:0:0:0:
192,192,31625,1,0,0:0:0:0:
320,192,31706,1,0,0:0:0:0:
448,192,31706,1,0,0:0:0:0:
192,192,31868,1,0,0:0:0:0:
448,192,32030,1,0,0:0:0:0:
64,192,32192,1,0,0:0:0:0:
320,192,32354,1,0,0:0:0:0:
192,192,32516,1,0,0:0:0:0:
64,192,32679,1,0,0:0:0:0:
448,192,32841,1,0,0:0:0:0:
320,192,33003,1,0,0:0:0:0:
192,192,33165,1,0,0:0:0:0:
448,192,33327,1,0,0:0:0:0:
64,192,33489,1,0,0:0:0:0:
192,192,33652,1,0,0:0:0:0:
320,192,33814,1,0,0:0:0:0:
448,192,33976,1,0,0:0:0:0:
320,192,34138,1,0,0:0:0:0:
448,192,34300,1,0,0:0:0:0:
64,192,34462,1,0,0:0:0:0:
320,192,34625,1,0,0:0:0:0:
192,192,34787,1,0,0:0:0:0:
64,192,34949,1,0,0:0:0:0:
448,192,35111,1,0,0:0:0:0:
192,192,35273,1,0,0:0:0:0:
320,192,35435,1,0,0:0:0:0:
448,192,35598,1,0,0:0:0:0:
320,192,35760,1,0,0:0:0:0:
192,192,35922,1,0,0:0:0:0:
64,192,36084,1,0,0:0:0:0:
64,192,36246,1,0,0:0:0:0:
192,192,36408,1,0,0:0:0:0:
320,192,36570,1,0,0:0:0:0:
448,192,36733,1,0,0:0:0:0:
64,192,36895,128,0,37219:0:0:0:0:
320,192,37057,1,0,0:0:0:0:
192,192,37219,128,0,37543:0:0:0:0:
448,192,37381,1,0,0:0:0:0:
320,192,37543,128,0,37868:0:0:0:0:
64,192,37706,1,0,0:0:0:0:
448,192,37868,128,0,38192:0:0:0:0:
192,192,38030,1,0,0:0:0:0:
320,192,38192,128,0,38516:0:0:0:0:
64,192,38354,1,0,0:0:0:0:
192,192,38516,128,0,38841:0:0:0:0:
448,192,38679,1,0,0:0:0:0:
64,192,38841,128,0,39165:0:0:0:0:
320,192,39003,1,0,0:0:0:0:
448,192,39165,128,0,39489:0:0:0:0:
192,192,39327,1,0,0:0:0:0:
320,192,39489,128,0,39814:0:0:0:0:
192,192,39652,1,0,0:0:0:0:
64,192,39814,128,0,40138:0:0:0:0:
448,192,39976,1,0,0:0:0:0:
448,192,40138,128,0,40462:0:0:0:0:
320,192,40300,1,0,0:0:0:0:
192,192,40462,128,0,40787:0:0:0:0:
64,192,40625,1,0,0:0:0:0:
448,192,40787,128,0,41111:0:0:0:0:
64,192,40949,1,0,0:0:0:0:
320,192,41111,128,0,41435:0:0:0:0:
192,192,41273,1,0,0:0:0:0:
192,192,41435,128,0,41760:0:0:0:0:
448,192,41598,1,0,0:0:0:0:
64,192,41760,128,0,42084:0:0:0:0:
320,192,41922,1,0,0:0:0:0:
192,192,42084,1,0,0:0:0:0:
448,192,42084,1,0,0:0:0:0:
320,192,42165,1,0,0:0:0:0:
192,192,42246,1,0,0:0:0:0:
64,192,42327,1,0,0:0:0:0:
192,192,42408,1,0,0:0:0:0:
320,192,42489,1,0,0:0:0:0:
448,192,42570,1,0,0:0:0:0:
320,192,42652,1,0,0:0:0:0:
448,192,42733,1,0,0:0:0:0:
320,192,42814,1,0,0:0:0:0:
192,192,42895,1,0,0:0:0:0:
64,192,42976,1,0,0:0:0:0:
448,192,43057,1,0,0:0:0:0:
320,192,43138,1,0,0:0:0:0:
192,192,43219,1,0,0:0:0:0:
64,192,43300,1,0,0:0:0:0:
192,192,43381,1,0,0:0:0:0:
320,192,43462,1,0,0:0:0:0:
64,192,43543,1,0,0:0:0:0:
448,192,43625,1,0,0:0:0:0:
320,192,43706,1,0,0:0:0:0:
192,192,43787,1,0,0:0:0:0:
448,192,43868,1,0,0:0:0:0:
64,192,43949,1,0,0:0:0:0:
192,192,44030,1,0,0:0:0:0:
320,192,44111,1,0,0:0:0:0:
448,192,44192,1,0,0:0:0:0:
64,192,44273,1,0,0:0:0:0:
192,192,44354,1,0,0:0:0:0:
448,192,44435,1,0,0:0:0:0:
320,192,44516,1,0,0:0:0:0:
192,192,44598,1,0,0:0:0:0:
64,192,44679,1,0,0:0:0:0:
448,192,44760,1,0,0:0:0:0:
192,192,44841,1,0,0:0:0:0:
320,192,44922,1,0,0:0:0:0:
448,192,45003,1,0,0:0:0:0:
192,192,45084,1,0,0:0:0:0:
320,192,45165,1,0,0:0:0:0:
64,192,45246,1,0,0:0:0:0:
192,192,45327,1,0,0:0:0:0:
448,192,45408,1,0,0:0:0:0:
64,192,45489,1,0,0:0:0:0:
320,192,45570,1,0,0:0:0:0:
448,192,45652,1,0,0:0:0:0:
320,192,45733,1,0,0:0:0:0:
192,192,45814,1,0,0:0:0:0:
64,192,45895,1,0,0:0:0:0:
192,192,45976,1,0,0:0:0:0:
320,192,46057,1,0,0:0:0:0:
64,192,46138,1,0,0:0:0:0:
448,192,46219,1,0,0:0:0:0:
192,192,46300,1,0,0:0:0:0:
320,192,46381,1,0,0:0:0:0:
64,192,46462,1,0,0:0:0:0:
448,192,46543,1,0,0:0:0:0:
320,192,46625,1,0,0:0:0:0:
192,192,46706,1,0,0:0:0:0:
448,192,46787,1,0,0:0:0:0:
64,192,46868,1,0,0:0:0:0:
320,192,46949,1,0,0:0:0:0:
192,192,47030,1,0,0:0:0:0:
448,192,47111,1,0,0:0:0:0:
64,192,47192,1,0,0:0:0:0:
448,192,47273,1,0,0:0:0:0:
320,192,47354,1,0,0:0:0:0:
192,192,47435,1,0,0:0:0:0:
64,192,47516,1,0,0:0:0:0:
448,192,47598,1,0,0:0:0:0:
320,192,47679,1,0,0:0:0:0:
192,192,47760,1,0,0:0:0:0:
64,192,47841,1,0,0:0:0:0:
64,192,47922,1,0,0:0:0:0:
192,192,48003,1,0,0:0:0:0:
320,192,48084,1,0,0:0:0:0:
448,192,48165,1,0,0:0:0:0:
64,192,48246,1,0,0:0:0:0:
192,192,48327,1,0,0:0:0:0:
320,192,48408,1,0,0:0:0:0:
448,192,48489,1,0,0:0:0:0:
192,192,48570,1,0,0:0:0:0:
320,192,48652,1,0,0:0:0:0:
64,192,48733,1,0,0:0:0:0:
448,192,48814,1,0,0:0:0:0:
192,192,48895,1,0,0:0:0:0:
320,192,48976,1,0,0:0:0:0:
64,192,49057,1,0,0:0:0:0:
448,192,49138,1,0,0:0:0:0:
320,192,49219,1,0,0:0:0:0:
192,192,49300,1,0,0:0:0:0:
448,192,49381,1,0,0:0:0:0:
64,192,49462,1,0,0:0:0:0:
320,192,49543,1,0,0:0:0:0:
192,192,49625,1,0,0:0:0:0:
448,192,49706,1,0,0:0:0:0:
64,192,49787,1,0,0:0:0:0:
64,192,49868,1,0,0:0:0:0:
192,192,49949,1,0,0:0:0:0:
320,192,50030,1,0,0:0:0:0:
448,192,50111,1,0,0:0:0:0:
64,192,50192,1,0,0:0:0:0:
192,192,50273,1,0,0:0:0:0:
320,192,50354,1,0,0:0:0:0:
448,192,50435,1,0,0:0:0:0:
448,192,50516,1,0,0:0:0:0:
320,192,50598,1,0,0:0:0:0:
192,192,50679,1,0,0:0:0:0:
64,192,50760,1,0,0:0:0:0:
448,192,50841,1,0,0:0:0:0:
320,192,50922,1,0,0:0:0:0:
192,192,51003,1,0,0:0:0:0:
64,192,51084,1,0,0:0:0:0:
320,192,51165,128,0,51327:0:0:0:0:
192,192,51327,128,0,51489:0:0:0:0:
320,192,51489,128,0,51652:0:0:0:0:
192,192,51652,1,0,0:0:0:0:
192,192,51733,1,0,0:0:0:0:
64,192,51814,128,0,51976:0:0:0:0:
192,192,51976,128,0,52138:0:0:0:0:
448,192,52138,1,0,0:0:0:0:
320,192,52179,1,0,0:0:0:0:
192,192,52219,1,0,0:0:0:0:
64,192,52260,1,0,0:0:0:0:
448,192,52300,1,0,0:0:0:0:
320,192,52341,1,0,0:0:0:0:
192,192,52381,1,0,0:0:0:0:
64,192,52422,1,0,0:0:0:0:
320,192,52462,1,0,0:0:0:0:
448,192,52462,1,0,0:0:0:0:
192,192,52625,1,0,0:0:0:0:
320,192,52706,1,0,0:0:0:0:
448,192,52787,1,0,0:0:0:0:
64,192,52787,1,0,0:0:0:0:
320,192,52949,1,0,0:0:0:0:
192,192,53030,1,0,0:0:0:0:
448,192,53111,1,0,0:0:0:0:
64,192,53111,1,0,0:0:0:0:
320,192,53273,1,0,0:0:0:0:
64,192,53354,1,0,0:0:0:0:
192,192,53435,1,0,0:0:0:0:
448,192,53435,1,0,0:0:0:0:
448,192,53598,1,0,0:0:0:0:
320,192,53598,1,0,0:0:0:0:
64,192,53679,1,0,0:0:0:0:
192,192,53760,1,0,0:0:0:0:
448,192,53760,1,0,0:0:0:0:
320,192,53922,1,0,0:0:0:0:
192,192,54003,1,0,0:0:0:0:
448,192,54084,1,0,0:0:0:0:
64,192,54084,1,0,0:0:0:0:
192,192,54246,1,0,0:0:0:0:
320,192,54327,1,0,0:0:0:0:
448,192,54408,1,0,0:0:0:0:
64,192,54408,1,0,0:0:0:0:
320,192,54570,1,0,0:0:0:0:
192,192,54652,1,0,0:0:0:0:
448,192,54733,1,0,0:0:0:0:
64,192,54733,1,0,0:0:0:0:
320,192,54895,1,0,0:0:0:0:
448,192,54976,1,0,0:0:0:0:
320,192,55057,1,0,0:0:0:0:
64,192,55057,1,0,0:0:0:0:
192,192,55219,1,0,0:0:0:0:
320,192,55300,1,0,0:0:0:0:
448,192,55381,1,0,0:0:0:0:
192,192,55381,1,0,0:0:0:0:
320,192,55543,1,0,0:0:0:0:
192,192,55625,1,0,0:0:0:0:
448,192,55706,1,0,0:0:0:0:
64,192,55706,1,0,0:0:0:0:
192,192,55868,1,0,0:0:0:0:
448,192,55868,1,0,0:0:0:0:
320,192,55949,1,0,0:0:0:0:
320,192,56030,1,0,0:0:0:0:
64,192,56030,1,0,0:0:0:0:
192,192,56192,1,0,0:0:0:0:
448,192,56192,1,0,0:0:0:0:
320,192,56273,1,0,0:0:0:0:
192,192,56354,1,0,0:0:0:0:
64,192,56354,1,0,0:0:0:0:
448,192,56354,1,0,0:0:0:0:
320,192,56435,1,0,0:0:0:0:
192,192,56516,1,0,0:0:0:0:
64,192,56598,1,0,0:0:0:0:
192,192,56679,1,0,0:0:0:0:
320,192,56679,1,0,0:0:0:0:
448,192,56679,1,0,0:0:0:0:
64,192,56760,1,0,0:0:0:0:
192,192,56841,1,0,0:0:0:0:
320,192,56922,1,0,0:0:0:0:
448,192,57003,1,0,0:0:0:0:
192,192,57003,1,0,0:0:0:0:
64,192,57003,1,0,0:0:0:0:
320,192,57084,1,0,0:0:0:0:
448,192,57165,1,0,0:0:0:0:
192,192,57246,1,0,0:0:0:0:
320,192,57327,1,0,0:0:0:0:
448,192,57327,1,0,0:0:0:0:
64,192,57327,1,0,0:0:0:0:
192,192,57489,1,0,0:0:0:0:
320,192,57570,1,0,0:0:0:0:
448,192,57652,1,0,0:0:0:0:
64,192,57652,1,0,0:0:0:0:
320,192,57814,1,0,0:0:0:0:
192,192,57895,1,0,0:0:0:0:
320,192,57976,1,0,0:0:0:0:
64,192,57976,1,0,0:0:0:0:
192,192,58138,1,0,0:0:0:0:
320,192,58219,1,0,0:0:0:0:
448,192,58300,1,0,0:0:0:0:
192,192,58300,1,0,0:0:0:0:
320,192,58462,1,0,0:0:0:0:
64,192,58462,1,0,0:0:0:0:
192,192,58625,1,0,0:0:0:0:
448,192,58625,1,0,0:0:0:0:
320,192,58787,1,0,0:0:0:0:
64,192,58787,1,0,0:0:0:0:
448,192,58949,1,0,0:0:0:0:
192,192,58949,1,0,0:0:0:0:
320,192,59111,1,0,0:0:0:0:
320,192,59192,1,0,0:0:0:0:
448,192,59273,1,0,0:0:0:0:
192,192,59273,1,0,0:0:0:0:
192,192,59435,1,0,0:0:0:0:
192,192,59516,1,0,0:0:0:0:
320,192,59598,1,0,0:0:0:0:
64,192,59598,1,0,0:0:0:0:
320,192,59760,1,0,0:0:0:0:
320,192,59841,1,0,0:0:0:0:
448,192,59922,1,0,0:0:0:0:
64,192,59922,1,0,0:0:0:0:
192,192,60084,1,0,0:0:0:0:
192,192,60165,1,0,0:0:0:0:
448,192,60246,1,0,0:0:0:0:
64,192,60246,1,0,0:0:0:0:
320,192,60408,1,0,0:0:0:0:
448,192,60489,1,0,0:0:0:0:
320,192,60570,1,0,0:0:0:0:
64,192,60570,1,0,0:0:0:0:
192,192,60733,1,0,0:0:0:0:
64,192,60814,1,0,0:0:0:0:
448,192,60895,1,0,0:0:0:0:
192,192,60895,1,0,0:0:0:0:
320,192,61057,1,0,0:0:0:0:
64,192,61057,1,0,0:0:0:0:
192,192,61219,1,0,0:0:0:0:
448,192,61219,1,0,0:0:0:0:
320,192,61381,1,0,0:0:0:0:
64,192,61381,1,0,0:0:0:0:
448,192,61543,1,0,0:0:0:0:
192,192,61543,1,0,0:0:0:0:
64,192,61543,1,0,0:0:0:0:
320,192,61706,1,0,0:0:0:0:
320,192,61787,1,0,0:0:0:0:
448,192,61868,1,0,0:0:0:0:
192,192,61868,1,0,0:0:0:0:
64,192,61868,1,0,0:0:0:0:
192,192,62030,1,0,0:0:0:0:
192,192,62111,1,0,0:0:0:0:
320,192,62192,1,0,0:0:0:0:
448,192,62192,1,0,0:0:0:0:
64,192,62192,1,0,0:0:0:0:
192,192,62354,1,0,0:0:0:0:
192,192,62435,1,0,0:0:0:0:
448,192,62516,1,0,0:0:0:0:
64,192,62516,1,0,0:0:0:0:
320,192,62516,1,0,0:0:0:0:
192,192,62679,1,0,0:0:0:0:
320,192,62760,1,0,0:0:0:0:
448,192,62841,1,0,0:0:0:0:
64,192,62841,1,0,0:0:0:0:
320,192,63003,1,0,0:0:0:0:
448,192,63084,1,0,0:0:0:0:
320,192,63165,1,0,0:0:0:0:
192,192,63165,1,0,0:0:0:0:
192,192,63327,1,0,0:0:0:0:
64,192,63408,1,0,0:0:0:0:
192,192,63489,1,0,0:0:0:0:
320,192,63489,1,0,0:0:0:0:
320,192,63652,1,0,0:0:0:0:
448,192,63652,1,0,0:0:0:0:
320,192,63814,1,0,0:0:0:0:
192,192,63814,1,0,0:0:0:0:
192,192,63976,1,0,0:0:0:0:
64,192,63976,1,0,0:0:0:0:
448,192,64138,1,0,0:0:0:0:
192,192,64138,1,0,0:0:0:0:
320,192,64300,1,0,0:0:0:0:
64,192,64381,1,0,0:0:0:0:
192,192,64462,1,0,0:0:0:0:
448,192,64462,1,0,0:0:0:0:
320,192,64625,1,0,0:0:0:0:
64,192,64706,1,0,0:0:0:0:
192,192,64787,1,0,0:0:0:0:
448,192,64787,1,0,0:0:0:0:
64,192,64949,1,0,0:0:0:0:
448,192,65030,1,0,0:0:0:0:
320,192,65111,1,0,0:0:0:0:
192,192,65111,1,0,0:0:0:0:
448,192,65273,1,0,0:0:0:0:
64,192,65354,1,0,0:0:0:0:
192,192,65435,128,0,65760:0:0:0:0:
320,192,65760,1,0,0:0:0:0:
448,192,65760,1,0,0:0:0:0:
64,192,65760,1,0,0:0:0:0:
320,192,65922,1,0,0:0:0:0:
448,192,65922,1,0,0:0:0:0:
64,192,65922,1,0,0:0:0:0:
320,192,66084,1,0,0:0:0:0:
448,192,66084,1,0,0:0:0:0:
64,192,66084,1,0,0:0:0:0:
320,192,66246,1,0,0:0:0:0:
448,192,66246,1,0,0:0:0:0:
64,192,66246,1,0,0:0:0:0:
320,192,66408,128,0,66652:0:0:0:0:
64,192,66408,128,0,66652:0:0:0:0:
448,192,66408,128,0,66652:0:0:0:0:
320,192,66733,1,0,0:0:0:0:
448,192,66733,1,0,0:0:0:0:
64,192,66733,1,0,0:0:0:0:
192,192,66814,1,0,0:0:0:0:
320,192,66895,1,0,0:0:0:0:
64,192,66976,1,0,0:0:0:0:
192,192,66976,1,0,0:0:0:0:
448,192,66976,1,0,0:0:0:0:
320,192,67057,1,0,0:0:0:0:
192,192,67138,1,0,0:0:0:0:
320,192,67219,1,0,0:0:0:0:
448,192,67219,1,0,0:0:0:0:
64,192,67219,1,0,0:0:0:0:
192,192,67300,1,0,0:0:0:0:
320,192,67381,1,0,0:0:0:0:
192,192,67462,1,0,0:0:0:0:
64,192,67462,1,0,0:0:0:0:
448,192,67462,1,0,0:0:0:0:
320,192,67543,1,0,0:0:0:0:
192,192,67625,1,0,0:0:0:0:
448,192,67706,1,0,0:0:0:0:
64,192,67706,1,0,0:0:0:0:
448,192,67787,1,0,0:0:0:0:
64,192,67787,1,0,0:0:0:0:
448,192,67868,1,0,0:0:0:0:
64,192,67868,1,0,0:0:0:0:
448,192,67949,1,0,0:0:0:0:
64,192,67949,1,0,0:0:0:0:
192,192,68030,1,0,0:0:0:0:
320,192,68030,1,0,0:0:0:0:
192,192,68192,1,0,0:0:0:0:
320,192,68273,1,0,0:0:0:0:
448,192,68354,1,0,0:0:0:0:
64,192,68435,1,0,0:0:0:0:
192,192,68516,1,0,0:0:0:0:
320,192,68598,1,0,0:0:0:0:
448,192,68679,1,0,0:0:0:0:
64,192,68679,1,0,0:0:0:0:
320,192,68841,1,0,0:0:0:0:
192,192,68922,1,0,0:0:0:0:
448,192,69003,1,0,0:0:0:0:
320,192,69084,1,0,0:0:0:0:
192,192,69165,1,0,0:0:0:0:
64,192,69246,1,0,0:0:0:0:
448,192,69327,1,0,0:0:0:0:
192,192,69327,1,0,0:0:0:0:
64,192,69489,1,0,0:0:0:0:
320,192,69570,1,0,0:0:0:0:
64,192,69652,1,0,0:0:0:0:
192,192,69733,1,0,0:0:0:0:
320,192,69814,1,0,0:0:0:0:
64,192,69814,1,0,0:0:0:0:
448,192,69895,1,0,0:0:0:0:
192,192,69976,1,0,0:0:0:0:
320,192,69976,1,0,0:0:0:0:
448,192,70138,1,0,0:0:0:0:
64,192,70219,1,0,0:0:0:0:
192,192,70300,1,0,0:0:0:0:
320,192,70381,1,0,0:0:0:0:
448,192,70462,1,0,0:0:0:0:
320,192,70543,1,0,0:0:0:0:
64,192,70625,1,0,0:0:0:0:
192,192,70665,1,0,0:0:0:0:
320,192,70706,1,0,0:0:0:0:
448,192,70746,1,0,0:0:0:0:
64,192,70787,1,0,0:0:0:0:
192,192,70827,1,0,0:0:0:0:
320,192,70868,1,0,0:0:0:0:
448,192,70908,1,0,0:0:0:0:
64,192,70949,1,0,0:0:0:0:
192,192,70989,1,0,0:0:0:0:
320,192,71030,1,0,0:0:0:0:
448,192,71070,1,0,0:0:0:0:
64,192,71111,1,0,0:0:0:0:
192,192,71152,1,0,0:0:0:0:
320,192,71192,1,0,0:0:0:0:
448,192,71233,1,0,0:0:0:0:
192,192,71273,1,0,0:0:0:0:
64,192,71273,1,0,0:0:0:0:
192,192,71435,1,0,0:0:0:0:
64,192,71435,1,0,0:0:0:0:
320,192,71598,1,0,0:0:0:0:
192,192,71679,1,0,0:0:0:0:
320,192,71760,1,0,0:0:0:0:
192,192,71841,1,0,0:0:0:0:
448,192,71922,1,0,0:0:0:0:
64,192,71922,1,0,0:0:0:0:
320,192,71922,1,0,0:0:0:0:
192,192,72246,1,0,0:0:0:0:
64,192,72246,1,0,0:0:0:0:
448,192,72246,1,0,0:0:0:0:
448,192,72570,1,0,0:0:0:0:
448,192,72652,1,0,0:0:0:0:
320,192,72733,1,0,0:0:0:0:
320,192,72814,1,0,0:0:0:0:
192,192,72895,1,0,0:0:0:0:
192,192,72976,1,0,0:0:0:0:
64,192,73057,1,0,0:0:0:0:
64,192,73138,1,0,0:0:0:0:
192,192,73219,1,0,0:0:0:0:
448,192,73219,128,0,81003:0:0:0:0:
320,192,73381,1,0,0:0:0:0:
192,192,73543,1,0,0:0:0:0:
64,192,73706,1,0,0:0:0:0:
320,192,73868,1,0,0:0:0:0:
192,192,74030,1,0,0:0:0:0:
64,192,74192,1,0,0:0:0:0:
64,192,74354,1,0,0:0:0:0:
64,192,74516,1,0,0:0:0:0:
192,192,74679,1,0,0:0:0:0:
320,192,74841,1,0,0:0:0:0:
320,192,75003,1,0,0:0:0:0:
64,192,75165,1,0,0:0:0:0:
192,192,75327,1,0,0:0:0:0:
320,192,75489,1,0,0:0:0:0:
320,192,75652,1,0,0:0:0:0:
192,192,75814,1,0,0:0:0:0:
64,192,75976,1,0,0:0:0:0:
320,192,76138,1,0,0:0:0:0:
192,192,76300,1,0,0:0:0:0:
64,192,76462,1,0,0:0:0:0:
320,192,76625,1,0,0:0:0:0:
192,192,76787,1,0,0:0:0:0:
64,192,76949,1,0,0:0:0:0:
320,192,77111,1,0,0:0:0:0:
192,192,77273,1,0,0:0:0:0:
64,192,77435,1,0,0:0:0:0:
192,192,77598,1,0,0:0:0:0:
320,192,77760,1,0,0:0:0:0:
192,192,77922,1,0,0:0:0:0:
64,192,78084,1,0,0:0:0:0:
192,192,78246,1,0,0:0:0:0:
320,192,78408,1,0,0:0:0:0:
64,192,78570,1,0,0:0:0:0:
320,192,78733,1,0,0:0:0:0:
64,192,78895,1,0,0:0:0:0:
192,192,79057,1,0,0:0:0:0:
192,192,79219,1,0,0:0:0:0:
320,192,79381,1,0,0:0:0:0:
64,192,79543,1,0,0:0:0:0:
320,192,79706,1,0,0:0:0:0:
320,192,79868,1,0,0:0:0:0:
192,192,80030,1,0,0:0:0:0:
192,192,80192,1,0,0:0:0:0:
64,192,80354,1,0,0:0:0:0:
64,192,80516,1,0,0:0:0:0:
192,192,80679,1,0,0:0:0:0:
192,192,80841,1,0,0:0:0:0:
64,192,81003,1,0,0:0:0:0:
64,192,81165,1,0,0:0:0:0:
192,192,81327,1,0,0:0:0:0:
192,192,81489,1,0,0:0:0:0:
320,192,81652,1,0,0:0:0:0:
320,192,81814,1,0,0:0:0:0:
448,192,81976,1,0,0:0:0:0:
448,192,82138,1,0,0:0:0:0:
320,192,82300,1,0,0:0:0:0:
320,192,82381,1,0,0:0:0:0:
448,192,82462,1,0,0:0:0:0:
192,192,82543,1,0,0:0:0:0:
64,192,82625,1,0,0:0:0:0:
64,192,82706,1,0,0:0:0:0:
192,192,82787,1,0,0:0:0:0:
448,192,82868,1,0,0:0:0:0:
192,192,82949,1,0,0:0:0:0:
192,192,83030,1,0,0:0:0:0:
320,192,83111,1,0,0:0:0:0:
64,192,83192,1,0,0:0:0:0:
448,192,83273,1,0,0:0:0:0:
448,192,83354,1,0,0:0:0:0:
320,192,83435,1,0,0:0:0:0:
64,192,83516,1,0,0:0:0:0:
192,192,83598,1,0,0:0:0:0:
320,192,83598,1,0,0:0:0:0:
448,192,83598,1,0,0:0:0:0:
448,192,83760,1,0,0:0:0:0:
320,192,83760,1,0,0:0:0:0:
192,192,83760,1,0,0:0:0:0:
192,192,83922,128,0,84165:0:0:0:0:
320,192,83922,128,0,84165:0:0:0:0:
448,192,83922,128,0,84246:0:0:0:0:
64,192,84246,1,0,0:0:0:0:
192,192,84246,1,0,0:0:0:0:
320,192,84246,1,0,0:0:0:0:
64,192,84408,1,0,0:0:0:0:
192,192,84408,1,0,0:0:0:0:
320,192,84408,1,0,0:0:0:0:
320,192,84570,128,0,84814:0:0:0:0:
192,192,84570,128,0,84814:0:0:0:0:
64,192,84570,128,0,84814:0:0:0:0:
64,192,84895,1,0,0:0:0:0:
192,192,84895,1,0,0:0:0:0:
320,192,84895,1,0,0:0:0:0:
192,192,85219,1,0,0:0:0:0:
320,192,85219,1,0,0:0:0:0:
448,192,85219,1,0,0:0:0:0:
320,192,85543,1,0,0:0:0:0:
192,192,85543,1,0,0:0:0:0:
64,192,85543,1,0,0:0:0:0:
192,192,85868,1,0,0:0:0:0:
320,192,85868,1,0,0:0:0:0:
448,192,85868,1,0,0:0:0:0:
192,192,86192,1,0,0:0:0:0:
64,192,86192,1,0,0:0:0:0:
448,192,86192,1,0,0:0:0:0:
448,192,86354,1,0,0:0:0:0:
64,192,86354,1,0,0:0:0:0:
192,192,86354,1,0,0:0:0:0:
64,192,86516,128,0,86760:0:0:0:0:
192,192,86516,128,0,86841:0:0:0:0:
448,192,86516,128,0,86760:0:0:0:0:
320,192,86841,1,0,0:0:0:0:
448,192,86841,1,0,0:0:0:0:
64,192,86841,1,0,0:0:0:0:
320,192,87003,1,0,0:0:0:0:
448,192,87003,1,0,0:0:0:0:
64,192,87003,1,0,0:0:0:0:
320,192,87165,128,0,87408:0:0:0:0:
448,192,87165,128,0,87408:0:0:0:0:
64,192,87165,128,0,87489:0:0:0:0:
320,192,87489,1,0,0:0:0:0:
448,192,87489,1,0,0:0:0:0:
320,192,87652,1,0,0:0:0:0:
448,192,87652,1,0,0:0:0:0:
192,192,87733,1,0,0:0:0:0:
64,192,87733,1,0,0:0:0:0:
320,192,87814,1,0,0:0:0:0:
448,192,87814,1,0,0:0:0:0:
192,192,87976,1,0,0:0:0:0:
64,192,87976,1,0,0:0:0:0:
320,192,88057,1,0,0:0:0:0:
448,192,88057,1,0,0:0:0:0:
192,192,88138,1,0,0:0:0:0:
64,192,88138,1,0,0:0:0:0:
192,192,88246,1,0,0:0:0:0:
64,192,88246,1,0,0:0:0:0:
192,192,88354,1,0,0:0:0:0:
64,192,88354,1,0,0:0:0:0:
320,192,88462,1,0,0:0:0:0:
448,192,88462,1,0,0:0:0:0:
320,192,88570,1,0,0:0:0:0:
448,192,88570,1,0,0:0:0:0:
320,192,88679,1,0,0:0:0:0:
448,192,88679,1,0,0:0:0:0:
192,192,88787,1,0,0:0:0:0:
64,192,88787,1,0,0:0:0:0:
320,192,88949,1,0,0:0:0:0:
192,192,89030,1,0,0:0:0:0:
448,192,89111,1,0,0:0:0:0:
64,192,89111,1,0,0:0:0:0:
192,192,89273,1,0,0:0:0:0:
320,192,89354,1,0,0:0:0:0:
448,192,89435,1,0,0:0:0:0:
64,192,89435,1,0,0:0:0:0:
320,192,89598,1,0,0:0:0:0:
448,192,89679,1,0,0:0:0:0:
320,192,89760,1,0,0:0:0:0:
64,192,89760,1,0,0:0:0:0:
192,192,89922,1,0,0:0:0:0:
64,192,90003,1,0,0:0:0:0:
192,192,90084,1,0,0:0:0:0:
448,192,90084,1,0,0:0:0:0:
320,192,90246,1,0,0:0:0:0:
64,192,90327,1,0,0:0:0:0:
192,192,90408,1,0,0:0:0:0:
448,192,90408,1,0,0:0:0:0:
64,192,90570,1,0,0:0:0:0:
320,192,90652,1,0,0:0:0:0:
192,192,90733,1,0,0:0:0:0:
448,192,90733,1,0,0:0:0:0:
320,192,90895,1,0,0:0:0:0:
448,192,90976,1,0,0:0:0:0:
320,192,91057,1,0,0:0:0:0:
64,192,91057,1,0,0:0:0:0:
192,192,91381,1,0,0:0:0:0:
448,192,91381,1,0,0:0:0:0:
320,192,91462,1,0,0:0:0:0:
192,192,91543,1,0,0:0:0:0:
64,192,91625,1,0,0:0:0:0:
192,192,91706,1,0,0:0:0:0:
448,192,91706,1,0,0:0:0:0:
64,192,91787,1,0,0:0:0:0:
192,192,91868,1,0,0:0:0:0:
320,192,91949,1,0,0:0:0:0:
448,192,92030,1,0,0:0:0:0:
192,192,92030,1,0,0:0:0:0:
64,192,92111,1,0,0:0:0:0:
192,192,92192,1,0,0:0:0:0:
320,192,92273,1,0,0:0:0:0:
448,192,92354,1,0,0:0:0:0:
192,192,92354,1,0,0:0:0:0:
320,192,92435,1,0,0:0:0:0:
192,192,92516,1,0,0:0:0:0:
64,192,92598,1,0,0:0:0:0:
192,192,92679,1,0,0:0:0:0:
448,192,92679,1,0,0:0:0:0:
448,192,92841,1,0,0:0:0:0:
192,192,92841,1,0,0:0:0:0:
192,192,93003,1,0,0:0:0:0:
448,192,93003,1,0,0:0:0:0:
448,192,93165,1,0,0:0:0:0:
192,192,93165,1,0,0:0:0:0:
448,192,93327,1,0,0:0:0:0:
192,192,93327,1,0,0:0:0:0:
320,192,93408,1,0,0:0:0:0:
64,192,93408,1,0,0:0:0:0:
448,192,93489,1,0,0:0:0:0:
192,192,93489,1,0,0:0:0:0:
320,192,93570,1,0,0:0:0:0:
64,192,93570,1,0,0:0:0:0:
448,192,93652,1,0,0:0:0:0:
192,192,93652,1,0,0:0:0:0:
320,192,93733,1,0,0:0:0:0:
64,192,93733,1,0,0:0:0:0:
192,192,93814,1,0,0:0:0:0:
448,192,93814,1,0,0:0:0:0:
320,192,93895,1,0,0:0:0:0:
64,192,93895,1,0,0:0:0:0:
192,192,93976,128,0,94300:0:0:0:0:
448,192,94300,1,0,0:0:0:0:
320,192,94300,1,0,0:0:0:0:
64,192,94300,1,0,0:0:0:0:
192,192,94462,1,0,0:0:0:0:
320,192,94543,1,0,0:0:0:0:
448,192,94625,1,0,0:0:0:0:
64,192,94625,1,0,0:0:0:0:
320,192,94868,1,0,0:0:0:0:
192,192,94949,1,0,0:0:0:0:
64,192,94949,1,0,0:0:0:0:
192,192,95111,1,0,0:0:0:0:
320,192,95111,1,0,0:0:0:0:
448,192,95273,1,0,0:0:0:0:
320,192,95273,1,0,0:0:0:0:
64,192,95273,1,0,0:0:0:0:
320,192,95516,1,0,0:0:0:0:
448,192,95598,1,0,0:0:0:0:
192,192,95598,1,0,0:0:0:0:
64,192,95760,1,0,0:0:0:0:
192,192,95922,1,0,0:0:0:0:
320,192,95922,1,0,0:0:0:0:
448,192,96084,1,0,0:0:0:0:
320,192,96165,1,0,0:0:0:0:
192,192,96165,1,0,0:0:0:0:
448,192,96246,1,0,0:0:0:0:
64,192,96246,1,0,0:0:0:0:
448,192,96408,1,0,0:0:0:0:
192,192,96408,1,0,0:0:0:0:
448,192,96570,1,0,0:0:0:0:
320,192,96652,1,0,0:0:0:0:
192,192,96733,1,0,0:0:0:0:
64,192,96814,1,0,0:0:0:0:
448,192,96895,1,0,0:0:0:0:
320,192,96976,1,0,0:0:0:0:
192,192,97057,1,0,0:0:0:0:
64,192,97138,1,0,0:0:0:0:
64,192,97219,1,0,0:0:0:0:
192,192,97300,1,0,0:0:0:0:
320,192,97381,1,0,0:0:0:0:
448,192,97462,1,0,0:0:0:0:
64,192,97543,1,0,0:0:0:0:
192,192,97625,1,0,0:0:0:0:
320,192,97706,1,0,0:0:0:0:
448,192,97787,1,0,0:0:0:0:
192,192,97868,1,0,0:0:0:0:
64,192,97868,1,0,0:0:0:0:
192,192,97976,1,0,0:0:0:0:
320,192,97976,1,0,0:0:0:0:
192,192,98084,1,0,0:0:0:0:
64,192,98084,1,0,0:0:0:0:
320,192,98192,1,0,0:0:0:0:
448,192,98192,1,0,0:0:0:0:
320,192,98300,1,0,0:0:0:0:
192,192,98300,1,0,0:0:0:0:
320,192,98408,1,0,0:0:0:0:
448,192,98408,1,0,0:0:0:0:
192,192,98516,1,0,0:0:0:0:
64,192,98516,1,0,0:0:0:0:
192,192,98625,1,0,0:0:0:0:
320,192,98625,1,0,0:0:0:0:
320,192,98733,1,0,0:0:0:0:
448,192,98733,1,0,0:0:0:0:
192,192,98841,1,0,0:0:0:0:
64,192,98841,1,0,0:0:0:0:
192,192,98949,1,0,0:0:0:0:
320,192,98949,1,0,0:0:0:0:
320,192,99057,1,0,0:0:0:0:
448,192,99057,1,0,0:0:0:0:
192,192,99165,128,0,99489:0:0:0:0:
64,192,99165,128,0,99489:0:0:0:0:
320,192,99489,1,0,0:0:0:0:
448,192,99489,1,0,0:0:0:0:
64,192,99570,1,0,0:0:0:0:
320,192,99652,1,0,0:0:0:0:
192,192,99652,1,0,0:0:0:0:
448,192,99733,1,0,0:0:0:0:
320,192,99814,128,0,99976:0:0:0:0:
64,192,99814,128,0,100138:0:0:0:0:
192,192,99976,1,0,0:0:0:0:
448,192,100057,1,0,0:0:0:0:
320,192,100138,1,0,0:0:0:0:
192,192,100138,1,0,0:0:0:0:
448,192,100300,1,0,0:0:0:0:
64,192,100381,1,0,0:0:0:0:
192,192,100462,1,0,0:0:0:0:
320,192,100462,1,0,0:0:0:0:
448,192,100462,1,0,0:0:0:0:
64,192,100543,1,0,0:0:0:0:
192,192,100625,1,0,0:0:0:0:
320,192,100706,1,0,0:0:0:0:
448,192,100787,1,0,0:0:0:0:
192,192,100787,1,0,0:0:0:0:
64,192,100787,1,0,0:0:0:0:
320,192,100868,1,0,0:0:0:0:
64,192,100949,1,0,0:0:0:0:
448,192,101030,1,0,0:0:0:0:
320,192,101111,1,0,0:0:0:0:
192,192,101111,1,0,0:0:0:0:
64,192,101111,1,0,0:0:0:0:
448,192,101192,1,0,0:0:0:0:
320,192,101273,1,0,0:0:0:0:
192,192,101354,1,0,0:0:0:0:
320,192,101435,1,0,0:0:0:0:
448,192,101435,1,0,0:0:0:0:
64,192,101435,1,0,0:0:0:0:
192,192,101516,1,0,0:0:0:0:
448,192,101598,1,0,0:0:0:0:
64,192,101679,1,0,0:0:0:0:
192,192,101760,128,0,102084:0:0:0:0:
320,192,101760,1,0,0:0:0:0:
64,192,102003,1,0,0:0:0:0:
320,192,102084,1,0,0:0:0:0:
448,192,102084,1,0,0:0:0:0:
64,192,102165,1,0,0:0:0:0:
192,192,102246,1,0,0:0:0:0:
320,192,102246,1,0,0:0:0:0:
448,192,102327,1,0,0:0:0:0:
64,192,102408,1,0,0:0:0:0:
320,192,102489,1,0,0:0:0:0:
192,192,102570,1,0,0:0:0:0:
448,192,102652,1,0,0:0:0:0:
320,192,102733,1,0,0:0:0:0:
64,192,102814,1,0,0:0:0:0:
448,192,102895,1,0,0:0:0:0:
192,192,102976,1,0,0:0:0:0:
448,192,103057,1,0,0:0:0:0:
320,192,103138,1,0,0:0:0:0:
192,192,103219,1,0,0:0:0:0:
64,192,103300,1,0,0:0:0:0:
448,192,103381,1,0,0:0:0:0:
320,192,103462,1,0,0:0:0:0:
192,192,103543,1,0,0:0:0:0:
64,192,103625,1,0,0:0:0:0:
448,192,103706,128,0,103949:0:0:0:0:
320,192,103706,1,0,0:0:0:0:
320,192,103949,128,0,104192:0:0:0:0:
192,192,103949,1,0,0:0:0:0:
448,192,104111,1,0,0:0:0:0:
192,192,104192,128,0,104354:0:0:0:0:
64,192,104192,1,0,0:0:0:0:
448,192,104273,1,0,0:0:0:0:
320,192,104354,1,0,0:0:0:0:
64,192,104354,1,0,0:0:0:0:
192,192,104516,1,0,0:0:0:0:
320,192,104598,1,0,0:0:0:0:
448,192,104679,1,0,0:0:0:0:
64,192,104679,1,0,0:0:0:0:
320,192,104841,1,0,0:0:0:0:
192,192,104922,1,0,0:0:0:0:
448,192,105003,1,0,0:0:0:0:
64,192,105003,1,0,0:0:0:0:
192,192,105165,1,0,0:0:0:0:
448,192,105165,1,0,0:0:0:0:
320,192,105327,1,0,0:0:0:0:
448,192,105327,1,0,0:0:0:0:
448,192,105489,1,0,0:0:0:0:
64,192,105489,1,0,0:0:0:0:
448,192,105652,1,0,0:0:0:0:
192,192,105652,1,0,0:0:0:0:
320,192,105814,1,0,0:0:0:0:
192,192,105895,1,0,0:0:0:0:
448,192,105976,1,0,0:0:0:0:
64,192,105976,1,0,0:0:0:0:
192,192,106138,1,0,0:0:0:0:
320,192,106219,1,0,0:0:0:0:
448,192,106300,1,0,0:0:0:0:
64,192,106300,1,0,0:0:0:0:
320,192,106462,1,0,0:0:0:0:
64,192,106462,1,0,0:0:0:0:
192,192,106625,1,0,0:0:0:0:
64,192,106625,1,0,0:0:0:0:
448,192,106787,1,0,0:0:0:0:
64,192,106787,1,0,0:0:0:0:
192,192,106949,1,0,0:0:0:0:
320,192,106949,1,0,0:0:0:0:
448,192,107030,1,0,0:0:0:0:
320,192,107111,1,0,0:0:0:0:
192,192,107192,1,0,0:0:0:0:
320,192,107273,1,0,0:0:0:0:
64,192,107273,1,0,0:0:0:0:
448,192,107354,1,0,0:0:0:0:
320,192,107435,1,0,0:0:0:0:
192,192,107516,1,0,0:0:0:0:
320,192,107598,1,0,0:0:0:0:
448,192,107598,1,0,0:0:0:0:
64,192,107679,1,0,0:0:0:0:
192,192,107760,1,0,0:0:0:0:
320,192,107841,1,0,0:0:0:0:
448,192,107922,1,0,0:0:0:0:
192,192,107922,1,0,0:0:0:0:
64,192,108003,1,0,0:0:0:0:
192,192,108084,1,0,0:0:0:0:
320,192,108165,1,0,0:0:0:0:
448,192,108246,1,0,0:0:0:0:
192,192,108246,1,0,0:0:0:0:
320,192,108408,1,0,0:0:0:0:
64,192,108408,1,0,0:0:0:0:
192,192,108570,1,0,0:0:0:0:
448,192,108570,1,0,0:0:0:0:
448,192,108733,1,0,0:0:0:0:
192,192,108733,1,0,0:0:0:0:
320,192,108895,1,0,0:0:0:0:
320,192,109219,1,0,0:0:0:0:
320,192,109543,1,0,0:0:0:0:
448,192,109543,1,0,0:0:0:0:
320,192,109706,1,0,0:0:0:0:
192,192,109706,1,0,0:0:0:0:
192,192,109868,1,0,0:0:0:0:
64,192,109868,1,0,0:0:0:0:
192,192,110030,1,0,0:0:0:0:
448,192,110030,1,0,0:0:0:0:
320,192,110192,1,0,0:0:0:0:
64,192,110192,1,0,0:0:0:0:
448,192,110354,1,0,0:0:0:0:
320,192,110395,1,0,0:0:0:0:
192,192,110435,1,0,0:0:0:0:
64,192,110476,1,0,0:0:0:0:
320,192,110516,1,0,0:0:0:0:
448,192,110516,1,0,0:0:0:0:
192,192,110679,1,0,0:0:0:0:
64,192,110679,1,0,0:0:0:0:
192,192,110841,1,0,0:0:0:0:
448,192,110841,1,0,0:0:0:0:
320,192,111003,1,0,0:0:0:0:
64,192,111003,1,0,0:0:0:0:
320,192,111165,1,0,0:0:0:0:
64,192,111165,1,0,0:0:0:0:
192,192,111327,1,0,0:0:0:0:
448,192,111327,1,0,0:0:0:0:
448,192,111489,1,0,0:0:0:0:
320,192,111489,1,0,0:0:0:0:
64,192,111652,1,0,0:0:0:0:
192,192,111692,1,0,0:0:0:0:
320,192,111733,1,0,0:0:0:0:
448,192,111773,1,0,0:0:0:0:
192,192,111814,1,0,0:0:0:0:
64,192,111814,1,0,0:0:0:0:
320,192,111976,1,0,0:0:0:0:
448,192,111976,1,0,0:0:0:0:
320,192,112138,1,0,0:0:0:0:
64,192,112138,1,0,0:0:0:0:
192,192,112219,1,0,0:0:0:0:
320,192,112300,1,0,0:0:0:0:
448,192,112381,1,0,0:0:0:0:
192,192,112462,1,0,0:0:0:0:
320,192,112543,1,0,0:0:0:0:
448,192,112625,1,0,0:0:0:0:
64,192,112706,1,0,0:0:0:0:
192,192,112787,1,0,0:0:0:0:
320,192,112868,1,0,0:0:0:0:
448,192,112949,1,0,0:0:0:0:
192,192,113030,1,0,0:0:0:0:
320,192,113111,1,0,0:0:0:0:
192,192,113192,1,0,0:0:0:0:
448,192,113273,1,0,0:0:0:0:
64,192,113354,1,0,0:0:0:0:
192,192,113435,1,0,0:0:0:0:
320,192,113435,1,0,0:0:0:0:
448,192,113516,1,0,0:0:0:0:
64,192,113516,1,0,0:0:0:0:
192,192,113598,1,0,0:0:0:0:
320,192,113598,1,0,0:0:0:0:
448,192,113679,1,0,0:0:0:0:
64,192,113679,1,0,0:0:0:0:
192,192,113760,1,0,0:0:0:0:
320,192,113760,1,0,0:0:0:0:
448,192,113841,1,0,0:0:0:0:
64,192,113841,1,0,0:0:0:0:
192,192,113922,1,0,0:0:0:0:
320,192,113922,1,0,0:0:0:0:
448,192,114003,1,0,0:0:0:0:
64,192,114003,1,0,0:0:0:0:
192,192,114084,1,0,0:0:0:0:
320,192,114084,1,0,0:0:0:0:
192,192,114192,1,0,0:0:0:0:
320,192,114192,1,0,0:0:0:0:
192,192,114300,1,0,0:0:0:0:
320,192,114300,1,0,0:0:0:0:
448,192,114408,1,0,0:0:0:0:
64,192,114408,1,0,0:0:0:0:
448,192,114516,1,0,0:0:0:0:
64,192,114516,1,0,0:0:0:0:
448,192,114625,1,0,0:0:0:0:
64,192,114625,1,0,0:0:0:0:
192,192,115057,128,0,119922:0:0:0:0:
448,192,115057,1,0,0:0:0:0:
64,192,115057,1,0,0:0:0:0:
320,192,115057,128,0,119922:0:0:0:0:
